The Expanse (2015) S03E03 (1080p AMZN WE Torrent Free Download

Seeders : 238   &   Leechers : 728      30-04-2018 (7 months)
The Expanse (2015) S03E03 (1080p AMZN WE Torrent Download
Added: ago by Vyndros ***** in TV   778.8 MB   Hits : 34
Info Hash: EBE6D76ECA9BC7CA4D3A4B3E792156FB8507B7A1 Download
The Expanse (2015) S03E03 (1080p AMZN WE Torrent Download

Anonymous and Direct Download movies , software , shows...

Fast Safe Anonymous
movies, software, shows...
The Expanse
Drama /Mystery /Sci-Fi /Thriller  .   60 min   8.4/10
Director : N/A  
Writer: Mark Fergus  Hawk Ostby  
Tags: The  Expanse  (2015)  S03E03  (1080p  AMZN  

Released:
23 Nov 2015
Two hundred years in the future, in a fully colonized solar system, police detective Josephus Miller (Thomas Jane), who was born in the asteroid belt, is given the assignment to find a missing young woman; Julie Mao (Florence Faivre). Meanwhile, James Holden (Steve.... See More n Strait), the first officer of an ice freighter, is witness to an unprovoked attack upon the ship, by craft believed to be from Mars (MCRN Federation). As news of the attack spreads throughout the system, the incident's flow-on threatens to destabilize already tenuous relations between Earth, Mars and The Belt. Far away from the struggles in deep space, on Earth, Chrisjen Avasarala (Shohreh Aghdashloo), a powerful United Nations executive and diplomat, works to prevent war between Earth and Mars by any means. Soon, the 3 find out the missing woman and the ice freighter's fate are part of a vast covert conspiracy which threatens all humanity.

Torrent Description









Media Information

Code:

General
Format : Matroska
Format version : Version 4 / Version 2
File size : 779 MiB
Duration : 44 min 25 s
Overall bit rate : 2 451 kb/s
Encoded date : UTC 2018-04-28 00:49:38
Writing application : mkvmerge v20.0.0 ('I Am The Sun') 64-bit
Writing library : libebml v1.3.5 + libmatroska v1.4.8
Writing frontend : StaxRip v1.7.0.6

Video
ID : 1
Format : HEVC
Format/Info : High Efficiency Video Coding
Format profile : Main [email protected]@Main
Codec ID : V_MPEGH/ISO/HEVC
Duration : 44 min 25 s
Bit rate : 2 000 kb/s
Width : 1 920 pixels
Height : 1 080 pixels
Display aspect ratio : 16:9
Frame rate mode : Constant
Frame rate : 23.976 (24000/1001) FPS
Color space : YUV
Chroma subsampling : 4:2:0
Bit depth : 10 bits
Bits/(Pixel*Frame) : 0.040
Stream size : 635 MiB (82%)
Writing library : x265 2.7+337-54ff74d2b635:[Windows][GCC 7.3.0][64 bit] 10bit
Encoding settings : cpuid=1111039 / frame-threads=3 / numa-pools=12 / wpp / no-pmode / no-pme / no-psnr / ssim / log-level=2 / input-csp=1 / input-res=1920x1080 / interlace=0 / total-frames=63898 / level-idc=0 / high-tier=1 / uhd-bd=0 / ref=3 / no-allow-non-conformance / no-repeat-headers / annexb / no-aud / no-hrd / info / hash=0 / no-temporal-layers / open-gop / min-keyint=23 / keyint=250 / gop-lookahead=0 / bframes=8 / b-adapt=2 / b-pyramid / bframe-bias=0 / rc-lookahead=50 / lookahead-slices=6 / scenecut=40 / radl=0 / no-intra-refresh / ctu=64 / min-cu-size=8 / no-rect / no-amp / max-tu-size=32 / tu-inter-depth=1 / tu-intra-depth=1 / limit-tu=0 / rdoq-level=0 / dynamic-rd=0.00 / no-ssim-rd / signhide / no-tskip / nr-intra=0 / nr-inter=0 / no-constrained-intra / no-strong-intra-smoothing / max-merge=3 / limit-refs=3 / no-limit-modes / me=3 / subme=3 / merange=57 / temporal-mvp / weightp / no-weightb / no-analyze-src-pics / deblock=0:0 / sao / no-sao-non-deblock / rd=3 / no-early-skip / no-rskip / no-fast-intra / no-tskip-fast / no-cu-lossless / no-b-intra / no-splitrd-skip / rdpenalty=0 / psy-rd=1.50 / psy-rdoq=0.00 / no-rd-refine / no-lossless / cbqpoffs=0 / crqpoffs=0 / rc=crf / crf=20.0 / qcomp=0.60 / qpstep=4 / stats-write=0 / stats-read=0 / ipratio=1.40 / pbratio=1.30 / aq-mode=3 / aq-strength=0.80 / cutree / zone-count=0 / no-strict-cbr / qg-size=32 / no-rc-grain / qpmax=69 / qpmin=0 / no-const-vbv / sar=0 / overscan=0 / videoformat=5 / range=0 / colorprim=2 / transfer=2 / colormatrix=2 / chromaloc=0 / display-window=0 / max-cll=0,0 / min-luma=0 / max-luma=1023 / log2-max-poc-lsb=8 / vui-timing-info / vui-hrd-info / slices=1 / no-opt-qp-pps / no-opt-ref-list-length-pps / no-multi-pass-opt-rps / scenecut-bias=0.05 / no-opt-cu-delta-qp / no-aq-motion / no-hdr / no-hdr-opt / no-dhdr10-opt / no-idr-recovery-sei / analysis-reuse-level=5 / scale-factor=0 / refine-intra=0 / refine-inter=0 / refine-mv=0 / no-limit-sao / ctu-info=0 / no-lowpass-dct / refine-mv-type=0 / copy-pic=1 / max-ausize-factor=1.0 / no-dynamic-refine / no-single-sei
Default : Yes
Forced : No

Audio
ID : 2
Format : AAC
Format/Info : Advanced Audio Codec
Format profile : LC
Codec ID : A_AAC
Duration : 44 min 25 s
Bit rate : 449 kb/s
Channel(s) : 6 channels
Channel positions : Front: L C R, Side: L R, LFE
Sampling rate : 48.0 kHz
Frame rate : 46.875 FPS (1024 spf)
Compression mode : Lossy
Stream size : 143 MiB (18%)
Language : English
Default : Yes
Forced : Yes

Subtitle #1
ID : 3
Format : UTF-8
Codec ID : S_TEXT/UTF8
Codec ID/Info : UTF-8 Plain Text
Duration : 43 min 11 s
Bit rate : 77 b/s
Count of elements : 756
Stream size : 24.6 KiB (0%)
Language : English
Default : No
Forced : No

Subtitle #2
ID : 4
Format : UTF-8
Codec ID : S_TEXT/UTF8
Codec ID/Info : UTF-8 Plain Text
Duration : 43 min 11 s
Bit rate : 82 b/s
Count of elements : 809
Stream size : 26.1 KiB (0%)
Language : English
Default : No
Forced : No



Source Information

Code:

Release:
Amazon WEB-DL





Sharing Widget


No Comments For This Torrent . Be The First to Comment

You must Login to Comment . Click Here to Login

Menu 1

Some content in menu 1.

The Expanse (2015) S03E03 (1080p AMZN WEB-DL x265 HEVC 10bit AAC 5 1 V (Size: 778.8 MB)
  The Expanse (2015) S03E03 (1080p AMZN WEB-DL x265 HEVC 10bit AAC 5 1 V 778.8 MB
tracker name
udp://tracker.leechers-paradise.org:6969/announce
udp://zer0day.ch:1337/announce
udp://open.demonii.com:1337/announce
udp://tracker.coppersurfer.tk:6969/announce
udp://exodus.desync.com:6969/announce
µTorrent compatible trackers list

Relative Torrents

Torrent Name Size Age SEED LEECH
Paranormal Lockdown S03E06 Jim Beam Distllery iNTERNAL 480p x264-mSD [eztv]
Posted by    EZTVag   in   TV
177.2 MB 1 minute 43 177
7aum Arivu
Posted by    chaitan1337   in   Movies
2.2 GB 6 minutes 551 979
Private Life 2018 720p WEBRip X264 With ample LLG
Posted by    LifeLongg   in   Movies
1.4 GB 6 minutes 473 658
Garuda Superhero (2014) Hindi 720p WEB-D x264 AAC DD 2 0 - 900 MB
Posted by    DESIRE123   in   Movies
895.2 MB 6 minutes 912 677
WWE SmackDown Live 2018 12 18 720p HDTV 264-NWCHD [eztv]
Posted by    EZTVag   in   TV
2.9 GB 11 minutes 225 869