In The Fade 2018 720p WEB-DL H264 AC3 LL Torrent Free Download

Seeders : 982   &   Leechers : 516      30-04-2018 (7 months)
In The Fade 2018 720p WEB-DL H264 AC3 LL Torrent Download
Added: ago by LifeLongg ***** in Movies   1.4 GB   Hits : 46
Info Hash: DF17E7833E8E5B5436BC45A7282366D50DDBE7BD Download
In The Fade 2018 720p WEB-DL H264 AC3 LL Torrent Download

Anonymous and Direct Download movies , software , shows...

Fast Safe Anonymous
movies, software, shows...
In the Fade
Crime /Drama /Thriller  .   106 min   7.1/10
Director : Fatih Akin  
Tags: In  The  Fade  2018  720p  WEB-DL  

Released:
27 Dec 2017
Katja's life collapses after the death of her husband and son in a bomb attack. After a time of mourning and injustice, Katja seeks revenge.

Torrent Description





******************************Thumbnail:**********************



******************************Screenshots:********************

Screenshot 1

Screenshot 2

Screenshot 3

Screenshot 4

Screenshot 5

Screenshot 6

Screenshot 7

Screenshot 8

Screenshot 9

Screenshot 0

**************************************************************

Complete name : In.The.Fade.2018.720p.WEB-DL.H264.AC3.LLG.mp4
Format : MPEG-4
Format profile : Base Media
Codec ID : isom (isom/iso2/avc1/mp41)
File size : 1.33 GiB
Duration : 1 h 46 min
Overall bit rate : 1 790 kb/s
Writing application : Lavf57.56.101

Video
ID : 1
Format : AVC
Format/Info : Advanced Video Codec
Format profile : [email protected]
Format settings : CABAC / 4 Ref Frames
Format settings, CABAC : Yes
Format settings, RefFrames : 4 frames
Codec ID : avc1
Codec ID/Info : Advanced Video Coding
Duration : 1 h 46 min
Bit rate : 1 500 kb/s
Width : 1 280 pixels
Height : 534 pixels
Display aspect ratio : 2.40:1
Frame rate mode : Constant
Frame rate : 23.976 (23976/1000) FPS
Color space : YUV
Chroma subsampling : 4:2:0
Bit depth : 8 bits
Scan type : Progressive
Bits/(Pixel*Frame) : 0.092
Stream size : 1.13 GiB (85%)


Audio
ID : 2
Format : AC-3
Format/Info : Audio Coding 3
Codec ID : ac-3
Duration : 1 h 46 min
Bit rate mode : Constant
Bit rate : 256 kb/s
Channel(s) : 6 channels
Channel positions : Front: L C R, Side: L R, LFE
Sampling rate : 48.0 kHz
Frame rate : 31.250 FPS (1536 SPF)
Bit depth : 16 bits
Compression mode : Lossy
Stream size : 194 MiB (14%)
Service kind : Complete Main
Default : Yes
Alternate group : 1




Sharing Widget


No Comments For This Torrent . Be The First to Comment

You must Login to Comment . Click Here to Login

Menu 1

Some content in menu 1.

In The Fade 2018 720p WEB-DL H264 AC3 LLG (Size: 1.4 GB)
  In The Fade 2018 720p WEB-DL H264 AC3 LLG 1.4 GB
tracker name
udp://tracker.leechers-paradise.org:6969/announce
udp://zer0day.ch:1337/announce
udp://open.demonii.com:1337/announce
udp://tracker.coppersurfer.tk:6969/announce
udp://exodus.desync.com:6969/announce
µTorrent compatible trackers list

Relative Torrents

Torrent Name Size Age SEED LEECH
Death by Magic S01E02 WEBRip X264-INFLAT [eztv]
Posted by    EZTVag   in   TV
375.3 MB 39 seconds 134 375
The Great American Baking Show S04E02 Cokie and Bread Week WEB x264-CookieMonst
Posted by    Trige   in   TV
688.9 MB 39 seconds 572 622
Watch What Happens Live 2018 12 11 Ashto Pienaar and Jenny McCarthy WEB x264-TB
Posted by    EZTVag   in   TV
303.5 MB 39 seconds 67 156
Titans 2018 S01E10 720p WEB x265-MiNX[TG]
Posted by    mazemaze16   in   TV
142.2 MB 39 seconds 862 385
The Spy Who Dumped Me - Il tuo ex non mure mai (2018) 720p H264 italian english
Posted by    robbyrs   in   Movies
2.3 GB 8 minutes 390 216